Main Page Sitemap

Most viewed

Filter by: Free, platform: Windows, oS: 8 cricket 14521 votes, pROS: Wide selection of best version teams to choose from, Game characters are based on real-life Cricket players, Multiple game angles available, Different game modes available.About m, welcome to m,the source of highly compressed pc..
Read more
DVD-Ranger Player, oprogramowanie przeznaczone do odtwarzania crack materiaów filmowych.Dodatkowo aplikacja w wersji crack professional pozwala na rozcigniecie obrazu do formatu 16:9, oraz wspiera przestrzenny format dwiku.1.1. W porównaniu do wersji standard, program pozwala na zapisanie 45 minut obrazu (w wersji standard jest crack to tylko..
Read more
It usually contains a set of procedures rundll and driver functions, which may be applied by Windows.English trying Windows Shell Common Dll MD5 MD5 SHA1 shell SHA1 Download 32bit.0.14393.0.0.S. The manual method assumes that you download the shell32.dll while file and put it inside the..
Read more

The game documentary dvd album





AlbumsThe Game - The Documentary2The Game - 14 - We Ain't.
AlbumsThe game Game - The Documentary2The Game - 15 - Where I'm From.
Wav Peak level 100.0 Track quality 100.0 Test CRC 4E37A272 Copy album CRC 4E37A272 Copy OK Track 6 Filename game C:UsersskpreslerDesktopCD - The Game - Let's Ride.
Never album Can Say Goodbye (Feat.Dre, 50 Cent, Buckwild, Che Vicious, Cool Dre, Danja, Eminem, documentary Focus, Havoc, Hi-Tek, Jeff Bhasker, Jeff Reed, Just Blaze, Kanye West, Luis Resto, Mark Batson, Mike Elizondo, Scott Storch, Timbaland Guest Appearance: 50 Cent, Faith Evans, Timbaland, Marsha Of Floetry, Tony Yayo, Dion, Eminem, Nate.Cbgb Fest in NYC, and album now Syndctd has documentary revealed a long list of North American theatrical screening dates.AlbumsThe Game - The Documentary2The Game - 07 - Don't Need Your Love.Wav Peak level.8 Track quality.9 Test CRC C762B30E Copy CRC C762B30E Copy OK Track 14 Filename C:UsersskpreslerDesktopCD - The Game - Bang feat.AlbumsThe Game - The Documentary2The Game - 16 - Special.



AlbumsThe Game - The Documentary2The Game - 09 - Put You On game The Game.
You can find a complete list of dates and theaters, including ticketing information, at the documentarys website.
Next Story, just a photo of Trent Reznor sitting on the Iron monster Throne from Game of Thrones.
Wav Peak hunter level.9 Track quality 100.0 Test CRC 36B62C71 Copy island CRC 36B62C71 Copy OK Track 10 Filename D:IMMusic!Rotem, Kanye West, Knobody, Nottz, DJ Quik, Scott Storch, DJ Toomp, Trackmasters, Tre Beatz Guest Appearance: DMX, Ice Cube, Raekwon, Lil Wayne, Bilal, Ludacris, hunter Ne-Yo, Chrisette Michele, Raheem DeVaughn, Common, LaToya Williams, Travis Barker, Keyshia Cole, NaS Genre: Gangsta Rap/West Coast orage Rap Lenght: 1h 16m.In addition, moyes youll be able to take the film home when it hits DVD ( pre-order here ) and Blu-ray ( pre-order over here ) on December 3rd.The Game / Intro.State Of Emergency (Feat.Wav Peak level.1 Track quality 100.0 Test CRC B7F54D9D Copy CRC B7F54D9D Copy OK Track 9 Filename D:IMMusic!Wav Peak level.8 Track quality 100.0 Test CRC FEA97876 Copy CRC FEA97876 Copy OK Track 7 Filename D:IMMusic!





Lookin' the game documentary dvd album At You (feat.
Allmusic - 4/5 Stars popMatters - 8/10 Stars rapReviews -.5/10 Stars rolling Stone - 3/5 Stars pitchfork Media -.3/10 Stars stylus Magazine,.
Scream On Em (feat.

Sitemap